<?xml version="1.0" standalone="no"?>
<!DOCTYPE svg PUBLIC "-//W3C//DTD SVG 1.1//EN" "http://www.w3.org/Graphics/SVG/1.1/DTD/svg11.dtd" >
<svg xmlns="http://www.w3.org/2000/svg">
<metadata>
This is a custom SVG font generated by IcoMoon.
<iconset grid="16"></iconset>
</metadata>
<defs>
<font id="eightyshades" horiz-adv-x="512" >
<font-face units-per-em="512" ascent="480" descent="-32" />
<missing-glyph horiz-adv-x="512" />
<glyph unicode="&#xe000;" d="M 480.00,32.00l-32.00,0.00 l0.00,64.00 c0.00,17.672-14.312,32.00-32.00,32.00s-32.00-14.328-32.00-32.00l0.00-64.00 L 128.00,32.00 l0.00,64.00 
			c0.00,17.672-14.312,32.00-32.00,32.00s-32.00-14.328-32.00-32.00l0.00-64.00 L 32.00,32.00 c-17.688,0.00-32.00-14.328-32.00-32.00s 14.312-32.00, 32.00-32.00l 448.00,0.00 c 17.688,0.00, 32.00,14.328, 32.00,32.00
			S 497.688,32.00, 480.00,32.00z M 480.00,480.00L 32.00,480.00 C 14.312,480.00,0.00,465.672,0.00,448.00l0.00-192.00 c0.00-35.344, 28.656-64.00, 64.00-64.00s 64.00,28.656, 64.00,64.00c0.00-35.344, 28.656-64.00, 64.00-64.00
			s 64.00,28.656, 64.00,64.00c0.00-35.344, 28.656-64.00, 64.00-64.00s 64.00,28.656, 64.00,64.00c0.00-35.344, 28.656-64.00, 64.00-64.00s 64.00,28.656, 64.00,64.00L 512.00,448.00 
			C 512.00,465.672, 497.688,480.00, 480.00,480.00z"  />
<glyph unicode="&#xe001;" d="M 480.00,256.00c-17.688,0.00-32.00-14.328-32.00-32.00l0.00-192.00 L 64.00,32.00 L 64.00,224.00 c0.00,17.672-14.312,32.00-32.00,32.00
		S0.00,241.672,0.00,224.00l0.00-224.00 c0.00-17.672, 14.312-32.00, 32.00-32.00l 448.00,0.00 c 17.688,0.00, 32.00,14.328, 32.00,32.00L 512.00,224.00 C 512.00,241.672, 497.688,256.00, 480.00,256.00zM 224.00,160.00c0.00-17.672, 14.312-32.00, 32.00-32.00s 32.00,14.328, 32.00,32.00L 288.00,352.00 l 96.00,0.00 L 256.00,480.00L 128.00,352.00l 96.00,0.00 L 224.00,160.00 z
		"  />
<glyph unicode="&#xe002;" d="M 480.00,256.00c-17.688,0.00-32.00-14.328-32.00-32.00l0.00-192.00 L 64.00,32.00 L 64.00,224.00 c0.00,17.672-14.312,32.00-32.00,32.00
	S0.00,241.672,0.00,224.00l0.00-224.00 c0.00-17.672, 14.312-32.00, 32.00-32.00l 448.00,0.00 c 17.688,0.00, 32.00,14.328, 32.00,32.00L 512.00,224.00 C 512.00,241.672, 497.688,256.00, 480.00,256.00zM 288.00,256.00L 288.00,451.909 C 288.00,467.422, 273.688,480.00, 256.00,480.00s-32.00-12.578-32.00-28.091L 224.00,256.00 l-96.00,0.00 l 128.00-128.00
	l 128.00,128.00L 288.00,256.00 z"  />
<glyph unicode="&#xe003;" d="M 480.00,480.00L 256.00,480.00 c-17.688,0.00-32.00-14.328-32.00-32.00s 14.312-32.00, 32.00-32.00l 192.00,0.00 l0.00-384.00 L 256.00,32.00 
		c-17.688,0.00-32.00-14.328-32.00-32.00s 14.312-32.00, 32.00-32.00l 224.00,0.00 c 17.688,0.00, 32.00,14.328, 32.00,32.00L 512.00,448.00 C 512.00,465.672, 497.688,480.00, 480.00,480.00zM 224.00,96.00l 128.00,128.00L 224.00,352.00l0.00-96.00 L 28.591,256.00 C 12.788,256.00,0.00,241.672,0.00,224.00
		s 12.788-32.00, 28.591-32.00L 224.00,192.00 L 224.00,96.00 z"  />
<glyph unicode="&#xe004;" d="M 502.688,281.516L 313.579,470.609c-7.217,7.248-16.901,10.044-26.368,9.263l-62.422,0.00 
	c-9.466,0.781-19.151-2.015-26.368-9.263l-38.396-38.397L 160.025,479.872 L 64.049,479.872 l0.00-143.636 L 9.312,281.516
	c-7.248-7.248-10.028-16.917-9.247-26.368l0.00-63.202 c0.00-17.668, 14.309-31.993, 31.991-31.993l 31.992,0.00 l0.00-159.959 
	c0.00-17.668, 14.309-31.992, 31.992-31.992L 415.96-31.998 c 17.683,0.00, 31.992,14.324, 31.992,31.992L 447.952,159.952 l 31.991,0.00 
	c 17.684,0.00, 31.992,14.325, 31.992,31.993l0.00,63.202 C 512.717,264.599, 509.937,274.268, 502.688,281.516z M 447.952,223.937l-63.984,0.00 l0.00-191.951 
	l-63.983,0.00 L 319.985,159.952 L 192.017,159.952 l0.00-127.967 l-63.984,0.00 L 128.033,223.937 L 64.049,223.937 l0.00,17.746 L 238.255,415.889l 35.491,0.00 l 174.206-174.206L 447.952,223.937 z"  />
<glyph unicode="&#xe005;" d="M 272.00,480.00l-32.00,0.00 C 142.781,480.00, 64.00,401.203, 64.00,304.00c0.00-68.398, 39.009-127.682, 96.00-156.812L 160.00,128.00 
	c0.00-17.672, 14.312-32.00, 32.00-32.00l 128.00,0.00 c 17.688,0.00, 32.00,14.328, 32.00,32.00l0.00,19.195 c 56.982,29.133, 96.00,88.412, 96.00,156.805C 448.00,401.203, 369.188,480.00, 272.00,480.00z
	 M 288.00,193.143L 288.00,160.00 l-64.00,0.00 l0.00,33.143 c-54.267,7.766-96.00,54.433-96.00,110.857c0.00,61.859, 50.156,112.00, 112.00,112.00l 32.00,0.00 c 61.844,0.00, 112.00-50.141, 112.00-112.00
	C 384.00,247.575, 342.267,200.908, 288.00,193.143zM 208.00,64.00l 96.00,0.00 c 8.844,0.00, 16.00-7.172, 16.00-16.00s-7.156-16.00-16.00-16.00l-96.00,0.00 c-8.844,0.00-16.00,7.172-16.00,16.00
	S 199.156,64.00, 208.00,64.00zM 240.00,0.00l 32.00,0.00 c 8.844,0.00, 16.00-7.172, 16.00-16.00s-7.156-16.00-16.00-16.00l-32.00,0.00 c-8.844,0.00-16.00,7.172-16.00,16.00
	S 231.156,0.00, 240.00,0.00z"  />
<glyph unicode="&#xe006;" d="M 472.934,71.086C 425.871,7.322, 343.936-32.739, 256.00-31.989
	c-87.936-0.75-169.872,39.312-216.934,103.075L 0.005,32.009L 0.005,160.006 l 127.997,0.00 l-35.187-35.17
	c 28.219-46.719, 75.437-80.296, 131.185-89.812L 224.00,228.537 c-55.123,14.265-95.998,63.889-95.998,123.466C 128.002,422.688, 185.314,480.00, 256.00,480.00
	c 70.685,0.00, 127.998-57.312, 127.998-127.998c0.00-59.577-40.875-109.201-95.998-123.466l0.00-193.512 
	c 55.748,9.516, 102.967,43.093, 131.184,89.812l-35.186,35.17l 127.996,0.00 l0.00-127.997 L 472.934,71.086z M 319.998,352.002
	c0.00,35.343-28.654,63.999-63.998,63.999c-35.344,0.00-63.999-28.656-63.999-63.999c0.00-35.343, 28.655-63.999, 63.999-63.999
	C 291.344,288.004, 319.998,316.66, 319.998,352.002z"  />
<glyph unicode="&#xe007;" d="M 433.206,437.378c-17.889,9.862-67.20,34.145-99.369,40.817
	c-33.414,6.938-83.13-123.527-98.935-124.103C 209.267,353.175, 231.791,443.164, 256.151,480.00c-38.019-25.387-105.561-59.47-121.365-98.67
	c-30.552-75.756, 56.622-212.086, 10.111-219.926c-14.498-2.442-54.663,94.019-65.085,123.449
	c-29.463-56.312-7.28-109.029, 17.08-174.893l0.00-4.09 c-0.934-3.562-1.742-6.97-2.583-10.438l 2.583,0.00 l0.00-95.574 
	c0.00-17.609, 14.249-31.858, 31.857-31.858c 17.609,0.00, 31.858,14.249, 31.858,31.858l0.00,95.574 l0.00,1.011 
	c 59.454,6.689, 87.423-12.802, 128.147,64.416c-24.857-10.281-74.48,21.047-64.183,35.841c 20.689,29.773, 105.281-1.681, 159.197,89.834
	c-85.339-22.742-95.419,9.862-96.228,21.747c-1.711,24.608, 85.308,11.573, 124.975,45.78
	C 435.509,373.895, 463.073,420.889, 433.206,437.378z"  />
<glyph unicode="&#xe008;" d="M 178.375,192.188L 73.094,86.906L 32.00,128.00c-17.688,0.00-32.00-14.312-32.00-32.00l0.00-96.00 
			c0.00-17.688, 14.312-32.00, 32.00-32.00l 96.00,0.00 c 17.688,0.00, 32.00,14.312, 32.00,32.00l-41.094,41.062l 105.281,105.312L 178.375,192.188z M 480.00,480.00l-96.00,0.00 
			c-17.688,0.00-32.00-14.328-32.00-32.00l 41.094-41.094L 287.812,301.625l 45.812-45.812l 105.281,105.266L 480.00,320.00c 17.688,0.00, 32.00,14.312, 32.00,32.00L 512.00,448.00 
			C 512.00,465.672, 497.688,480.00, 480.00,480.00z M 480.00,128.00l-41.094-41.094L 333.625,192.188l-45.812-45.812l 105.281-105.312L 352.00,0.00
			c0.00-17.688, 14.312-32.00, 32.00-32.00l 96.00,0.00 c 17.688,0.00, 32.00,14.312, 32.00,32.00l0.00,96.00 C 512.00,113.688, 497.688,128.00, 480.00,128.00z M 160.00,448.00c0.00,17.672-14.312,32.00-32.00,32.00
			L 32.00,480.00 C 14.312,480.00,0.00,465.672,0.00,448.00l0.00-96.00 c0.00-17.688, 14.312-32.00, 32.00-32.00l 41.094,41.078l 105.281-105.266l 45.812,45.812L 118.906,406.906L 160.00,448.00z"  />
<glyph unicode="&#xe009;" d="M 480.00,320.00l-41.094,41.078L 333.625,255.812l-45.812,45.812L 393.094,406.906L 352.00,448.00
	c0.00,17.672, 14.312,32.00, 32.00,32.00l 96.00,0.00 c 17.688,0.00, 32.00-14.328, 32.00-32.00l0.00-96.00 C 512.00,334.312, 497.688,320.00, 480.00,320.00z M 160.00,0.00c0.00-17.688-14.312-32.00-32.00-32.00L 32.00-32.00 
	c-17.688,0.00-32.00,14.312-32.00,32.00l0.00,96.00 c0.00,17.688, 14.312,32.00, 32.00,32.00l 41.094-41.094l 105.281,105.281l 45.812-45.812L 118.906,41.062L 160.00,0.00z"  />
<glyph unicode="&#xe00a;" d="M 497.914-17.913c-18.783-18.782-49.225-18.782-68.008,0.00l-84.863,84.863
	c-34.888-22.382-76.13-35.717-120.659-35.717C 100.469,31.233,0.00,131.687,0.00,255.617S 100.469,480.00, 224.384,480.00
	c 123.931,0.00, 224.384-100.452, 224.384-224.383c0.00-44.514-13.352-85.771-35.718-120.676l 84.864-84.863
	C 516.695,31.296, 516.695,0.869, 497.914-17.913z M 224.384,415.891c-88.511,0.00-160.274-71.747-160.274-160.273
	s 71.763-160.274, 160.274-160.274c 88.526,0.00, 160.274,71.748, 160.274,160.274S 312.91,415.891, 224.384,415.891z"  />
<glyph unicode="&#xe00b;" d="M 497.914-17.914c-18.783-18.781-49.226-18.781-68.008,0.00l-84.863,84.864
	c-34.889-22.366-76.131-35.718-120.66-35.718C 100.468,31.232,0.00,131.686,0.00,255.616S 100.468,480.00, 224.383,480.00
	c 123.931,0.00, 224.384-100.453, 224.384-224.384c0.00-44.529-13.352-85.771-35.718-120.675l 84.864-84.848
	C 516.695,31.311, 516.695,0.869, 497.914-17.914z M 224.383,415.89c-88.511,0.00-160.274-71.763-160.274-160.274
	c0.00-88.526, 71.763-160.274, 160.274-160.274c 88.527,0.00, 160.274,71.748, 160.274,160.274C 384.657,344.127, 312.91,415.89, 224.383,415.89z
	 M 256.438,159.452l-64.109,0.00 l0.00,64.109 l-64.109,0.00 l0.00,64.109 l 64.109,0.00 l0.00,64.11 l 64.109,0.00 l0.00-64.11 l 64.11,0.00 l0.00-64.109 l-64.11,0.00 L 256.438,159.452 z"  />
<glyph unicode="&#xe00c;" d="M 497.914,50.094l-84.864,84.848c 22.366,34.903, 35.718,76.146, 35.718,120.675
			C 448.768,379.547, 348.314,480.00, 224.383,480.00C 100.468,480.00,0.00,379.547,0.00,255.616s 100.468-224.384, 224.383-224.384
			c 44.529,0.00, 85.771,13.352, 120.66,35.718l 84.863-84.864c 18.782-18.781, 49.225-18.781, 68.008,0.00
			C 516.695,0.869, 516.695,31.311, 497.914,50.094z M 224.383,95.342c-88.511,0.00-160.274,71.748-160.274,160.274
			c0.00,88.511, 71.763,160.274, 160.274,160.274c 88.527,0.00, 160.274-71.763, 160.274-160.274
			C 384.657,167.09, 312.91,95.342, 224.383,95.342z M 128.219,223.562l 192.329,0.00 l0.00,64.109 L 128.219,287.671 L 128.219,223.562 z"  />
<glyph unicode="&#xe00d;" d="M 256.00-32.00C 114.625-32.00,0.00,82.609,0.00,224.00S 114.625,480.00, 256.00,480.00
	c 141.391,0.00, 256.00-114.609, 256.00-256.00S 397.391-32.00, 256.00-32.00z M 256.00,416.00C 149.969,416.00, 64.00,330.031, 64.00,224.00s 85.969-192.00, 192.00-192.00
	c 106.047,0.00, 192.00,85.969, 192.00,192.00S 362.047,416.00, 256.00,416.00z M 288.00,96.00l-64.00,0.00 l0.00,96.00 l-96.00,0.00 l0.00,64.00 l 96.00,0.00 l0.00,96.00 l 64.00,0.00 l0.00-96.00 l 96.00,0.00 l0.00-64.00 l-96.00,0.00 L 288.00,96.00 z"  />
<glyph unicode="&#xe00e;" d="M 256.00,480.00C 114.625,480.00,0.00,365.375,0.00,224.00c0.00-141.391, 114.625-256.00, 256.00-256.00
			c 141.391,0.00, 256.00,114.609, 256.00,256.00C 512.00,365.375, 397.391,480.00, 256.00,480.00z M 256.00,32.00c-106.031,0.00-192.00,85.969-192.00,192.00S 149.969,416.00, 256.00,416.00
			c 106.047,0.00, 192.00-85.969, 192.00-192.00S 362.047,32.00, 256.00,32.00z M 128.00,192.00l 256.00,0.00 l0.00,64.00 L 128.00,256.00 L 128.00,192.00 z"  />
<glyph unicode="&#xe00f;" d="M 256.00-32.00C 114.625-32.00,0.00,82.609,0.00,224.00C0.00,365.375, 114.625,480.00, 256.00,480.00
	s 256.00-114.625, 256.00-256.00C 512.00,82.609, 397.375-32.00, 256.00-32.00z M 256.00,416.00C 149.969,416.00, 64.00,330.031, 64.00,224.00s 85.969-192.00, 192.00-192.00
	s 192.00,85.969, 192.00,192.00S 362.031,416.00, 256.00,416.00z M 224.00,160.00l 64.00,0.00 l0.00-64.00 l-64.00,0.00 L 224.00,160.00 z M 224.00,352.00l 64.00,0.00 l0.00-160.00 l-64.00,0.00 L 224.00,352.00 z"  />
<glyph unicode="&#xe010;" d="M 256.00-32.00C 114.625-32.00,0.00,82.609,0.00,224.00C0.00,365.375, 114.625,480.00, 256.00,480.00
	s 256.00-114.625, 256.00-256.00C 512.00,82.609, 397.375-32.00, 256.00-32.00z M 256.00,416.00C 149.969,416.00, 64.00,330.031, 64.00,224.00s 85.969-192.00, 192.00-192.00
	s 192.00,85.969, 192.00,192.00S 362.031,416.00, 256.00,416.00zM 256.00,352.00c-53.031,0.00-96.00-42.984-96.00-96.00l 64.00,0.00 c0.00,17.672, 14.312,32.00, 32.00,32.00s 32.00-14.328, 32.00-32.00
	s-14.312-32.00-32.00-32.00c-1.225,0.00-5.108,0.00-16.00,0.00c-8.844,0.00-16.00-7.172-16.00-16.00l0.00-48.00 l 64.00,0.00 l0.00,5.875 c 37.188,13.219, 64.00,48.391, 64.00,90.125
	C 352.00,309.016, 309.031,352.00, 256.00,352.00zM 256.00,128.00L 224.00,128.00L 224.00,96.00L 256.00,96.00L 288.00,96.00L 288.00,128.00 z"  />
<glyph unicode="&#xe011;" d="M 74.966,42.987c-99.97,99.97-99.97,262.066,0.00,362.037
	c 100.002,99.97, 262.067,99.97, 362.068,0.00c 99.97-99.971, 99.97-262.067,0.00-362.037C 337.033-56.998, 174.968-56.998, 74.966,42.987z
	 M 391.783,359.773c-75.001,74.985-196.565,74.985-271.535,0.00c-75.001-74.985-75.001-196.55,0.00-271.535
	c 74.97-74.986, 196.534-74.986, 271.535,0.00C 466.754,163.224, 466.754,284.788, 391.783,359.773z M 188.124,110.863l-45.251,45.266
	l 67.876,67.877l-67.876,67.876l 45.251,45.267L 256.00,269.257l 67.877,67.892l 45.25-45.267l-67.876-67.876l 67.876-67.877l-45.25-45.266
	L 256.00,178.755L 188.124,110.863z"  />
<glyph unicode="&#xe012;" d="M 400.00,192.00c-17.25,0.00-33.406-4.219-48.00-11.188l0.00,86.375 
	C 366.594,260.219, 382.75,256.00, 400.00,256.00c 61.844,0.00, 112.00,50.141, 112.00,112.00S 461.844,480.00, 400.00,480.00S 288.00,429.859, 288.00,368.00l0.00-48.00 l-64.00,0.00 l0.00,48.00 
	C 224.00,429.859, 173.844,480.00, 112.00,480.00S0.00,429.859,0.00,368.00s 50.156-112.00, 112.00-112.00c 17.25,0.00, 33.406,4.219, 48.00,11.188l0.00-86.375 
	C 145.406,187.781, 129.25,192.00, 112.00,192.00C 50.156,192.00,0.00,141.859,0.00,80.00s 50.156-112.00, 112.00-112.00s 112.00,50.141, 112.00,112.00l0.00,48.00 l 64.00,0.00 l0.00-48.00 
	c0.00-61.859, 50.156-112.00, 112.00-112.00s 112.00,50.141, 112.00,112.00S 461.844,192.00, 400.00,192.00z M 400.00,416.00c 26.50,0.00, 48.00-21.484, 48.00-48.00s-21.50-48.00-48.00-48.00
	s-48.00,21.484-48.00,48.00S 373.50,416.00, 400.00,416.00z M 112.00,32.00c-26.50,0.00-48.00,21.484-48.00,48.00s 21.50,48.00, 48.00,48.00s 48.00-21.484, 48.00-48.00S 138.50,32.00, 112.00,32.00z M 112.00,320.00
	c-26.50,0.00-48.00,21.484-48.00,48.00s 21.50,48.00, 48.00,48.00s 48.00-21.484, 48.00-48.00S 138.50,320.00, 112.00,320.00z M 288.00,192.00l-64.00,0.00 l0.00,64.00 l 64.00,0.00 L 288.00,192.00 z M 400.00,32.00
	c-26.50,0.00-48.00,21.484-48.00,48.00s 21.50,48.00, 48.00,48.00s 48.00-21.484, 48.00-48.00S 426.50,32.00, 400.00,32.00z"  />
<glyph unicode="&#xe013;" d="M 256.00-32.00C 114.625-32.00,0.00,82.625,0.00,224.00C0.00,365.391, 114.625,480.00, 256.00,480.00
	s 256.00-114.609, 256.00-256.00C 512.00,82.625, 397.375-32.00, 256.00-32.00z M 64.00,224.00c0.00-41.312, 13.312-79.312, 35.531-110.656L 366.656,380.484
	C 335.344,402.672, 297.312,416.00, 256.00,416.00C 149.969,416.00, 64.00,330.031, 64.00,224.00z M 412.469,334.656L 145.344,67.50
	C 176.656,45.312, 214.688,32.00, 256.00,32.00c 106.031,0.00, 192.00,85.969, 192.00,192.00C 448.00,265.312, 434.688,303.328, 412.469,334.656z"  />
<glyph unicode="&#xe014;" d="M 256.00,384.00L 64.00,480.00L 32.00,480.00 C 14.312,480.00,0.00,465.672,0.00,448.00l0.00-352.00 c0.00-17.688, 14.312-32.00, 32.00-32.00l 224.00-96.00
	l 224.00,96.00c 17.688,0.00, 32.00,14.312, 32.00,32.00L 512.00,448.00 c0.00,17.672-14.312,32.00-32.00,32.00l-32.00,0.00  M 224.00,48.00L 64.00,128.00L 64.00,384.00 l 160.00-53.328L 224.00,48.00 z M 448.00,128.00l-160.00-80.00L 288.00,330.672 
	L 448.00,384.00L 448.00,128.00 z"  />
<glyph unicode="&#xe015;" d="M 480.00,192.00l-64.00,0.00 c-17.688,0.00-32.00,14.312-32.00,32.00s 14.312,32.00, 32.00,32.00l 64.00,0.00 
	c 17.688,0.00, 32.00-14.312, 32.00-32.00S 497.688,192.00, 480.00,192.00z M 391.75,314.50c-12.50-12.50-32.75-12.50-45.25,0.00s-12.50,32.75,0.00,45.25L 391.75,405.00
	c 12.50,12.50, 32.75,12.50, 45.25,0.00s 12.50-32.75,0.00-45.25L 391.75,314.50z M 256.00-32.00c-17.688,0.00-32.00,14.312-32.00,32.00l0.00,64.00 c0.00,17.688, 14.312,32.00, 32.00,32.00
	s 32.00-14.312, 32.00-32.00l0.00-64.00 C 288.00-17.688, 273.688-32.00, 256.00-32.00z M 256.00,352.00c-17.688,0.00-32.00,14.312-32.00,32.00L 224.00,448.00 c0.00,17.688, 14.312,32.00, 32.00,32.00
	s 32.00-14.312, 32.00-32.00l0.00-64.00 C 288.00,366.312, 273.688,352.00, 256.00,352.00z M 120.25,43.00c-12.50-12.50-32.75-12.50-45.25,0.00c-12.50,12.469-12.50,32.75,0.00,45.25
	l 45.25,45.25c 12.50,12.50, 32.75,12.50, 45.25,0.00s 12.50-32.75,0.00-45.25L 120.25,43.00z M 120.25,314.50L 75.00,359.75C 62.50,372.25, 62.50,392.50, 75.00,405.00
	s 32.75,12.50, 45.25,0.00l 45.25-45.25c 12.50-12.50, 12.50-32.75,0.00-45.25S 132.75,302.00, 120.25,314.50z M 128.00,224.00c0.00-17.688-14.312-32.00-32.00-32.00L 32.00,192.00 
	c-17.688,0.00-32.00,14.312-32.00,32.00s 14.312,32.00, 32.00,32.00l 64.00,0.00 C 113.688,256.00, 128.00,241.688, 128.00,224.00z M 391.75,133.50L 437.00,88.25
	c 12.50-12.50, 12.50-32.781,0.00-45.25c-12.50-12.50-32.75-12.50-45.25,0.00l-45.25,45.25c-12.50,12.50-12.50,32.75,0.00,45.25S 379.25,146.00, 391.75,133.50
	z"  />
<glyph unicode="&#xe016;" d="M 256.00-32.00C 114.625-32.00,0.00,82.625,0.00,224.00C0.00,365.391, 114.625,480.00, 256.00,480.00
	s 256.00-114.609, 256.00-256.00C 512.00,82.625, 397.375-32.00, 256.00-32.00z M 256.00,416.00C 149.969,416.00, 64.00,330.031, 64.00,224.00s 85.969-192.00, 192.00-192.00
	s 192.00,85.969, 192.00,192.00S 362.031,416.00, 256.00,416.00z M 192.00,320.00l 160.00-96.00l-160.00-96.00L 192.00,320.00 z"  />
<glyph unicode="&#xe017;" d="M 256.00-32.00C 114.625-32.00,0.00,82.625,0.00,224.00C0.00,365.391, 114.625,480.00, 256.00,480.00
	s 256.00-114.609, 256.00-256.00C 512.00,82.625, 397.375-32.00, 256.00-32.00z M 256.00,416.00C 149.969,416.00, 64.00,330.031, 64.00,224.00s 85.969-192.00, 192.00-192.00
	s 192.00,85.969, 192.00,192.00S 362.031,416.00, 256.00,416.00z M 192.00,288.00l 128.00,0.00 l0.00-128.00 L 192.00,160.00 L 192.00,288.00 z"  />
<glyph unicode="&#xe018;" d="M 256.00,480.00C 114.625,480.00,0.00,365.391,0.00,224.00c0.00-141.375, 114.625-256.00, 256.00-256.00
			s 256.00,114.625, 256.00,256.00C 512.00,365.391, 397.375,480.00, 256.00,480.00z M 256.00,32.00c-106.031,0.00-192.00,85.969-192.00,192.00S 149.969,416.00, 256.00,416.00s 192.00-85.969, 192.00-192.00
			S 362.031,32.00, 256.00,32.00z M 160.00,160.00l 64.00,0.00 L 224.00,288.00 l-64.00,0.00 L 160.00,160.00 z M 288.00,160.00l 64.00,0.00 L 352.00,288.00 l-64.00,0.00 L 288.00,160.00 z"  />
<glyph unicode="&#xe019;" d="M 256.00,480.00C 114.625,480.00,0.00,365.391,0.00,224.00c0.00-141.375, 114.625-256.00, 256.00-256.00
			s 256.00,114.625, 256.00,256.00C 512.00,365.391, 397.375,480.00, 256.00,480.00z M 256.00,32.00c-106.031,0.00-192.00,85.969-192.00,192.00S 149.969,416.00, 256.00,416.00s 192.00-85.969, 192.00-192.00
			S 362.031,32.00, 256.00,32.00zM 384.00,224.00L 256.00,320.00L 256.00,248.00L 160.00,320.00L 160.00,128.00L 256.00,200.00L 256.00,128.00 z"  />
<glyph unicode="&#xe01a;" d="M 256.00,480.00C 114.625,480.00,0.00,365.375,0.00,224.00c0.00-141.391, 114.625-256.00, 256.00-256.00
			s 256.00,114.609, 256.00,256.00C 512.00,365.375, 397.375,480.00, 256.00,480.00z M 256.00,32.00c-106.031,0.00-192.00,85.969-192.00,192.00S 149.969,416.00, 256.00,416.00s 192.00-85.969, 192.00-192.00
			S 362.031,32.00, 256.00,32.00zM 128.00,224.00L 256.00,128.00L 256.00,200.00L 352.00,128.00L 352.00,320.00L 256.00,248.00L 256.00,320.00 z"  />
<glyph unicode="&#xe01b;" d="M 408.208,329.356c-12.985-12.954-33.994-12.954-46.98,0.00
	c-12.955,12.955-12.955,33.995,0.00,46.981l 93.931,93.931c 12.986,12.955, 33.995,12.955, 46.981,0.00c 12.954-12.955, 12.954-33.995,0.00-46.98
	L 408.208,329.356z M 255.871-31.727L 128.008,96.137L 32.11,96.137 c-17.669,0.00-31.966,14.298-31.966,31.967L 0.144,319.898 
	c0.00,17.668, 14.297,31.966, 31.966,31.966l 95.897,0.00 L 255.871,479.728c0.00,0.00, 31.966,3.996, 31.966-31.966c0.00-191.233,0.00-478.926,0.00-447.522
	C 287.837-35.722, 255.871-31.727, 255.871-31.727z M 223.905,351.864l-63.932-63.932L 64.076,287.932 l0.00-127.863 l 95.897,0.00 l 63.932-63.933L 223.905,351.864 z
	 M 383.734,192.035c-17.669,0.00-31.966,14.297-31.966,31.966c0.00,17.668, 14.297,31.966, 31.966,31.966l 95.897,0.00 
	c 17.669,0.00, 31.966-14.298, 31.966-31.966c0.00-17.669-14.297-31.966-31.966-31.966L 383.734,192.035 z M 408.208,118.645l 93.932-93.931
	c 12.954-12.986, 12.954-34.026,0.00-46.981c-12.986-12.955-33.995-12.955-46.981,0.00l-93.931,93.931
	c-12.955,12.986-12.955,34.026,0.00,46.981C 374.214,131.60, 395.223,131.60, 408.208,118.645z"  />
<glyph unicode="&#xe01c;" d="M 319.967-23.497l0.00,67.34 C 394.335,70.267, 447.90,140.543, 447.90,224.00
	c0.00,83.426-53.565,153.732-127.934,180.156L 319.966,471.497 C 430.254,443.012, 511.868,343.188, 511.868,224.00S 430.254,4.957, 319.967-23.497z
	 M 256.00-31.868L 128.066,96.065L 32.115,96.065 c-17.678,0.00-31.983,14.306-31.983,31.983L 0.132,319.95 c0.00,17.679, 14.306,31.983, 31.983,31.983l 95.951,0.00 
	L 256.00,479.867c0.00,0.00, 31.983,3.998, 31.983-31.983c0.00-72.899,0.00-382.053,0.00-447.769C 287.983-35.866, 256.00-31.868, 256.00-31.868z
	 M 224.017,351.934l-63.967-63.967L 64.099,287.967 l0.00-127.934 l 95.951,0.00 l 63.967-63.968L 224.017,351.934 z M 415.917,224.00
	c0.00-59.532-40.854-109.132-95.95-123.405l0.00,68.309 C 339.02,179.991, 351.95,200.387, 351.95,224.00c0.00,23.612-12.931,44.008-31.983,55.097
	l0.00,68.308 C 375.063,333.131, 415.917,283.531, 415.917,224.00z"  />
<glyph unicode="&#xe01d;" d="M 511.603,176.274l-47.694-47.726l-47.726,47.726l-47.725-47.726l-47.694,47.726
	L 368.458,224.00l-47.694,47.725l 47.694,47.726l 47.725-47.726l 47.726,47.726l 47.694-47.726L 463.908,224.00L 511.603,176.274z
	 M 256.266-31.868L 128.332,96.065L 32.381,96.065 c-17.678,0.00-31.983,14.306-31.983,31.983L 0.398,319.95 c0.00,17.679, 14.306,31.983, 31.983,31.983
	l 95.951,0.00 L 256.266,479.867c0.00,0.00, 31.983,3.998, 31.983-31.983c0.00-173.535,0.00-425.718,0.00-447.769
	C 288.249-35.866, 256.266-31.868, 256.266-31.868z M 224.282,351.934l-63.967-63.967L 64.364,287.967 l0.00-127.934 l 95.951,0.00 l 63.967-63.968L 224.282,351.934 z"  />
<glyph unicode="&#xe01e;" d="M 325.719,352.375L 229.094,248.75L 184.812,296.219L 144.00,252.438L 230.781,160.094L 367.938,307.125 zM 480.00,480.00L 32.00,480.00 C 14.312,480.00,0.00,465.688,0.00,448.00l0.00-448.00 c0.00-17.688, 14.312-32.00, 32.00-32.00l 448.00,0.00 
	c 17.688,0.00, 32.00,14.312, 32.00,32.00l0.00,96.00 L 512.00,352.00 L 512.00,448.00 C 512.00,465.688, 497.688,480.00, 480.00,480.00z M 448.00,128.00l-96.00,0.00 l0.00-96.00 L 160.00,32.00 l0.00,96.00 L 64.00,128.00 L 64.00,320.00 L 64.00,416.00 l 96.00,0.00 l 192.00,0.00 l 96.00,0.00 L 448.00,128.00 z"  />
<glyph unicode="&#xe01f;" d="M 480.00,480.00L 32.00,480.00 C 14.312,480.00,0.00,465.688,0.00,448.00l0.00-448.00 c0.00-17.688, 14.312-32.00, 32.00-32.00l 448.00,0.00 
	c 17.688,0.00, 32.00,14.312, 32.00,32.00l0.00,96.00 L 512.00,352.00 L 512.00,448.00 C 512.00,465.688, 497.688,480.00, 480.00,480.00z M 448.00,128.00l-96.00,0.00 l0.00-96.00 L 160.00,32.00 l0.00,96.00 L 64.00,128.00 L 64.00,320.00 L 64.00,416.00 l 96.00,0.00 l 192.00,0.00 l 96.00,0.00 L 448.00,128.00 zM 128.00,256.00L 384.00,256.00L 384.00,192.00L 128.00,192.00zM 128.00,352.00L 384.00,352.00L 384.00,288.00L 128.00,288.00z"  />
<glyph unicode="&#xe020;" d="M 384.00,480.00L 128.00,480.00 L0.00,224.00l0.00-224.00 c0.00-17.688, 14.328-32.00, 32.00-32.00l 448.00,0.00 c 17.672,0.00, 32.00,14.312, 32.00,32.00
			L 512.00,224.00 L 384.00,480.00z M 448.00,32.00L 64.00,32.00 L 64.00,224.00 l 96.00,192.00l 192.00,0.00 l 96.00-192.00L 448.00,32.00 zM 320.00,352.00L 192.00,352.00L 128.00,224.00L 192.00,224.00L 192.00,160.00L 320.00,160.00L 320.00,224.00L 384.00,224.00 z"  />
<glyph unicode="&#xe021;" d="M 479.999,416.00L 32.00,416.00 C 14.329,416.00,0.00,401.688,0.00,384.00l0.00-320.00 c0.00-17.688, 14.329-32.00, 32.00-32.00l 447.999,0.00 
	C 497.671,32.00, 512.00,46.312, 512.00,64.00L 512.00,384.00 C 512.00,401.688, 497.671,416.00, 479.999,416.00z M 416.00,352.00L 256.00,224.00L 96.00,352.00L 416.00,352.00 z M 448.00,96.00L 64.00,96.00 L 64.00,320.00 l 192.00-160.00
	l 192.00,160.00L 448.00,96.00 z"  />
<glyph unicode="&#xe022;" d="M 480.00-32.00L 32.00-32.00 c-17.672,0.00-32.00,14.312-32.00,32.00L0.00,448.00 C0.00,465.688, 14.328,480.00, 32.00,480.00l 320.00,0.00 l-64.00-64.00L 64.00,416.00 
	l0.00-384.00 l 384.00,0.00 L 448.00,256.00 l 64.00,64.00l0.00-320.00 C 512.00-17.688, 497.672-32.00, 480.00-32.00z M 128.00,96.00l0.00,96.00 L 416.00,480.00l 32.00,0.00 l 64.00-64.00l0.00-32.00 L 224.00,96.00L 128.00,96.00 z M 272.00,208.00L 448.00,384.00l-32.00,32.00
	L 240.00,240.00L 272.00,208.00z M 192.00,192.00l-32.00-32.00l0.00-32.00 l 32.00,0.00 l 32.00,32.00L 192.00,192.00z"  />
<glyph unicode="&#xe023;" d="M 128.00,128.00L 288.00,128.00L 288.00,96.00L 128.00,96.00zM 128.00,192.00L 288.00,192.00L 288.00,160.00L 128.00,160.00zM 128.00,352.00L 288.00,352.00L 288.00,224.00L 128.00,224.00zM 480.00,416.00l-96.00,0.00 L 384.00,480.00 L 32.00,480.00 C 14.312,480.00,0.00,465.672,0.00,448.00l0.00-448.00 c0.00-17.688, 14.312-32.00, 32.00-32.00l 448.00,0.00 c 17.688,0.00, 32.00,14.312, 32.00,32.00L 512.00,384.00 
		C 512.00,401.672, 497.688,416.00, 480.00,416.00z M 448.00,32.00L 64.00,32.00 L 64.00,416.00 l 288.00,0.00 l0.00-320.00 l 32.00,0.00 L 384.00,352.00 l 64.00,0.00 L 448.00,32.00 z"  />
<glyph unicode="&#xe024;" d="M 480.00,480.00L 96.00,480.00 C 78.312,480.00, 64.00,465.672, 64.00,448.00l0.00-32.00 L 32.00,416.00 C 14.312,416.00,0.00,401.672,0.00,384.00l0.00-384.00 c0.00-17.688, 14.312-32.00, 32.00-32.00l 448.00,0.00 
		c 17.688,0.00, 32.00,14.312, 32.00,32.00L 512.00,448.00 C 512.00,465.672, 497.688,480.00, 480.00,480.00z M 128.00,32.00L 64.00,32.00 L 64.00,352.00 l 64.00,0.00 L 128.00,32.00 z M 448.00,32.00L 192.00,32.00 l0.00,32.00 L 192.00,352.00 L 192.00,416.00 l 256.00,0.00 L 448.00,32.00 zM 256.00,352.00L 384.00,352.00L 384.00,288.00L 256.00,288.00zM 256.00,160.00L 384.00,160.00L 384.00,96.00L 256.00,96.00zM 256.00,256.00L 384.00,256.00L 384.00,192.00L 256.00,192.00z"  />
<glyph unicode="&#xe025;" d="M 480.00-32.00L 32.00-32.00 c-17.688,0.00-32.00,14.312-32.00,32.00L0.00,448.00 C0.00,465.672, 14.312,480.00, 32.00,480.00l 64.00,0.00 l0.00-64.00 L 64.00,416.00 l0.00-384.00 
	l 384.00,0.00 L 448.00,416.00 l-32.00,0.00 L 416.00,480.00 l 64.00,0.00 c 17.688,0.00, 32.00-14.328, 32.00-32.00l0.00-448.00 C 512.00-17.688, 497.688-32.00, 480.00-32.00z M 128.00,352.00l 32.00,0.00 L 160.00,448.00 l 64.00,0.00 L 224.00,480.00 l 64.00,0.00 l0.00-32.00 l 64.00,0.00 l0.00-96.00 l 32.00,0.00 l0.00-256.00 L 128.00,96.00 L 128.00,352.00 z
	 M 288.00,416.00l-64.00,0.00 l0.00-32.00 l 64.00,0.00 L 288.00,416.00 z M 192.00,160.00l 128.00,0.00 L 320.00,288.00 L 192.00,288.00 L 192.00,160.00 z"  />
<glyph unicode="&#xe026;" d="M 416.00,480.00l-64.00,0.00 l0.00-64.00 l 64.00,0.00 L 416.00,480.00 z M 480.00,480.00l-32.00,0.00 l0.00-96.00 L 320.00,384.00 L 320.00,480.00 L 192.00,480.00 l0.00-96.00 L 64.00,384.00 L 64.00,480.00 L 32.00,480.00 C 14.312,480.00,0.00,465.672,0.00,448.00
			l0.00-448.00 c0.00-17.688, 14.312-32.00, 32.00-32.00l 448.00,0.00 c 17.688,0.00, 32.00,14.312, 32.00,32.00L 512.00,448.00 C 512.00,465.672, 497.688,480.00, 480.00,480.00z M 448.00,32.00L 64.00,32.00 L 64.00,320.00 l 384.00,0.00 L 448.00,32.00 z M 160.00,480.00L 96.00,480.00 
			l0.00-64.00 l 64.00,0.00 L 160.00,480.00 z M 288.00,256.00l-64.00,0.00 l0.00-64.00 l 64.00,0.00 L 288.00,256.00 z M 384.00,256.00l-64.00,0.00 l0.00-64.00 l 64.00,0.00 L 384.00,256.00 z M 192.00,160.00l-64.00,0.00 l0.00-64.00 l 64.00,0.00 L 192.00,160.00 z M 192.00,256.00l-64.00,0.00 l0.00-64.00 l 64.00,0.00 L 192.00,256.00 z M 288.00,160.00l-64.00,0.00 l0.00-64.00 l 64.00,0.00 
			L 288.00,160.00 z M 384.00,160.00l-64.00,0.00 l0.00-64.00 l 64.00,0.00 L 384.00,160.00 z"  />
<glyph unicode="&#xe027;" d="M 503.466,347.732L 379.733,471.466c-11.38,11.379-29.855,11.379-41.234,0.00
		L 214.767,347.732c-11.411-11.379-11.411-29.854,0.00-41.265l 20.601-20.601L 359.101,409.599l 82.499-82.499L 317.867,203.367
		l 20.632-20.632c 11.379-11.38, 29.854-11.38, 41.234,0.00l 123.732,123.732C 514.845,317.878, 514.845,336.354, 503.466,347.732zM 276.633,162.134L 152.90,38.40l-82.499,82.499l 123.732,123.733l-20.632,20.632
		c-11.379,11.38-29.854,11.38-41.233,0.00L 8.534,141.532c-11.379-11.41-11.379-29.886,0.00-41.265l 123.733-123.733
		c 11.379-11.379, 29.854-11.379, 41.233,0.00l 123.733,123.733c 11.41,11.379, 11.41,29.854,0.00,41.265L 276.633,162.134zM 173.501,141.532c 11.411-11.41, 29.854-11.41, 41.266,0.00l 123.732,123.732
		c 11.379,11.38, 11.379,29.824,0.00,41.203c-11.41,11.41-29.854,11.41-41.265,0.00L 173.501,182.735
		C 162.122,171.355, 162.122,152.911, 173.501,141.532z"  />
<glyph unicode="&#xe028;" d="M 288.00,256.00L 352.00,256.00L 352.00,96.00L 288.00,96.00zM 480.00,384.00L 352.00,384.00 L 352.00,448.00 c0.00,17.688-14.312,32.00-32.00,32.00L 192.00,480.00 c-17.688,0.00-32.00-14.312-32.00-32.00l0.00-64.00 L 32.00,384.00 c-17.688,0.00-32.00-14.312-32.00-32.00l0.00-32.00 l 32.00,0.00 l0.00-320.00 
		c0.00-17.688, 14.312-32.00, 32.00-32.00l 384.00,0.00 c 17.688,0.00, 32.00,14.312, 32.00,32.00L 480.00,320.00 l 32.00,0.00 l0.00,32.00 C 512.00,369.688, 497.688,384.00, 480.00,384.00z M 224.00,416.00l 64.00,0.00 l0.00-32.00 l-64.00,0.00 L 224.00,416.00 z
		 M 416.00,32.00L 96.00,32.00 L 96.00,320.00 l 320.00,0.00 L 416.00,32.00 zM 160.00,256.00L 224.00,256.00L 224.00,96.00L 160.00,96.00z"  />
<glyph unicode="&#xe029;" d="M 480.00,384.00L 352.00,384.00 L 352.00,448.00 c0.00,17.688-14.312,32.00-32.00,32.00L 192.00,480.00 c-17.688,0.00-32.00-14.312-32.00-32.00l0.00-64.00 L 32.00,384.00 
	c-17.688,0.00-32.00-14.312-32.00-32.00l0.00-32.00 l 64.00,0.00 l0.00-320.00 c0.00-17.688, 14.312-32.00, 32.00-32.00l 320.00,0.00 c 17.688,0.00, 32.00,14.312, 32.00,32.00L 448.00,320.00 l 64.00,0.00 l0.00,32.00 
	C 512.00,369.688, 497.688,384.00, 480.00,384.00z M 224.00,416.00l 64.00,0.00 l0.00-32.00 l-64.00,0.00 L 224.00,416.00 z M 384.00,32.00L 128.00,32.00 L 128.00,320.00 l 256.00,0.00 L 384.00,32.00 z"  />
<glyph unicode="&#xe02a;" d="M 192.00,192.00L 32.00,192.00 c-17.688,0.00-32.00-14.312-32.00-32.00l0.00-160.00 c0.00-17.688, 14.312-32.00, 32.00-32.00l 160.00,0.00 
			c 17.688,0.00, 32.00,14.312, 32.00,32.00L 224.00,160.00 C 224.00,177.688, 209.688,192.00, 192.00,192.00z M 160.00,32.00L 64.00,32.00 l0.00,96.00 l 96.00,0.00 L 160.00,32.00 z M 192.00,480.00L 32.00,480.00 C 14.312,480.00,0.00,465.688,0.00,448.00l0.00-160.00 
			c0.00-17.688, 14.312-32.00, 32.00-32.00l 160.00,0.00 c 17.688,0.00, 32.00,14.312, 32.00,32.00L 224.00,448.00 C 224.00,465.688, 209.688,480.00, 192.00,480.00z M 160.00,320.00L 64.00,320.00 L 64.00,416.00 l 96.00,0.00 L 160.00,320.00 z M 480.00,192.00L 320.00,192.00 
			c-17.688,0.00-32.00-14.312-32.00-32.00l0.00-160.00 c0.00-17.688, 14.312-32.00, 32.00-32.00l 160.00,0.00 c 17.688,0.00, 32.00,14.312, 32.00,32.00L 512.00,160.00 C 512.00,177.688, 497.688,192.00, 480.00,192.00z
			 M 448.00,32.00l-96.00,0.00 l0.00,96.00 l 96.00,0.00 L 448.00,32.00 z M 480.00,480.00L 320.00,480.00 c-17.688,0.00-32.00-14.312-32.00-32.00l0.00-160.00 c0.00-17.688, 14.312-32.00, 32.00-32.00l 160.00,0.00 c 17.688,0.00, 32.00,14.312, 32.00,32.00L 512.00,448.00 
			C 512.00,465.688, 497.688,480.00, 480.00,480.00z M 448.00,320.00l-96.00,0.00 L 352.00,416.00 l 96.00,0.00 L 448.00,320.00 z"  />
<glyph unicode="&#xe02b;" d="M 480.00-32.00L 32.00-32.00 c-17.688,0.00-32.00,14.312-32.00,32.00L0.00,448.00 C0.00,465.688, 14.312,480.00, 32.00,480.00l 448.00,0.00 
	c 17.688,0.00, 32.00-14.312, 32.00-32.00l0.00-448.00 C 512.00-17.688, 497.688-32.00, 480.00-32.00z M 448.00,416.00L 64.00,416.00 l0.00-384.00 l 384.00,0.00 L 448.00,416.00 z M 224.00,256.00l-96.00,0.00 l0.00,96.00 l 96.00,0.00 L 224.00,256.00 z M 224.00,96.00l-96.00,0.00 l0.00,96.00 
	l 96.00,0.00 L 224.00,96.00 z M 384.00,256.00l-96.00,0.00 l0.00,96.00 l 96.00,0.00 L 384.00,256.00 z M 384.00,96.00l-96.00,0.00 l0.00,96.00 l 96.00,0.00 L 384.00,96.00 z"  />
<glyph unicode="&#xe02c;" d="M 128.00,160.00L 384.00,160.00L 384.00,96.00L 128.00,96.00zM 128.00,256.00L 384.00,256.00L 384.00,192.00L 128.00,192.00zM 480.00,480.00L 32.00,480.00 C 14.312,480.00,0.00,465.688,0.00,448.00l0.00-448.00 c0.00-17.688, 14.312-32.00, 32.00-32.00l 448.00,0.00 c 17.688,0.00, 32.00,14.312, 32.00,32.00L 512.00,448.00 
		C 512.00,465.688, 497.688,480.00, 480.00,480.00z M 448.00,32.00L 64.00,32.00 L 64.00,416.00 l 384.00,0.00 L 448.00,32.00 zM 128.00,352.00L 384.00,352.00L 384.00,288.00L 128.00,288.00z"  />
<glyph unicode="&#xe02d;" d="M 128.00,352.00L 192.00,352.00L 192.00,288.00L 128.00,288.00zM 128.00,256.00L 192.00,256.00L 192.00,192.00L 128.00,192.00zM 128.00,160.00L 192.00,160.00L 192.00,96.00L 128.00,96.00zM 256.00,160.00L 384.00,160.00L 384.00,96.00L 256.00,96.00zM 480.00,480.00L 32.00,480.00 C 14.312,480.00,0.00,465.688,0.00,448.00l0.00-448.00 c0.00-17.688, 14.312-32.00, 32.00-32.00l 448.00,0.00 c 17.688,0.00, 32.00,14.312, 32.00,32.00L 512.00,448.00 
		C 512.00,465.688, 497.688,480.00, 480.00,480.00z M 448.00,32.00L 64.00,32.00 L 64.00,416.00 l 384.00,0.00 L 448.00,32.00 zM 256.00,256.00L 384.00,256.00L 384.00,192.00L 256.00,192.00zM 256.00,352.00L 384.00,352.00L 384.00,288.00L 256.00,288.00z"  />
<glyph unicode="&#xe02e;" d="M 480.00,480.00L 224.00,480.00 c-17.688,0.00-32.00-14.312-32.00-32.00l0.00-256.00 c0.00-17.688, 14.312-32.00, 32.00-32.00l 256.00,0.00 
			c 17.688,0.00, 32.00,14.312, 32.00,32.00L 512.00,448.00 C 512.00,465.688, 497.688,480.00, 480.00,480.00z M 448.00,224.00L 256.00,224.00 L 256.00,416.00 l 192.00,0.00 L 448.00,224.00 z M 256.00,32.00L 64.00,32.00 L 64.00,224.00 l 64.00,0.00 l0.00,64.00 L 32.00,288.00 
			c-17.688,0.00-32.00-14.312-32.00-32.00l0.00-256.00 c0.00-17.688, 14.312-32.00, 32.00-32.00l 256.00,0.00 c 17.688,0.00, 32.00,14.312, 32.00,32.00l0.00,96.00 l-64.00,0.00 L 256.00,32.00 z"  />
<glyph unicode="&#xe02f;" d="M 448.00,480.00L 64.00,480.00 C 46.312,480.00, 32.00,465.688, 32.00,448.00l0.00-448.00 c0.00-17.688, 14.312-32.00, 32.00-32.00l 384.00,0.00 
			c 17.688,0.00, 32.00,14.312, 32.00,32.00L 480.00,448.00 C 480.00,465.688, 465.688,480.00, 448.00,480.00z M 160.00,32.00L 96.00,32.00 l0.00,64.00 l 64.00,0.00 L 160.00,32.00 z M 160.00,128.00L 96.00,128.00 l0.00,64.00 l 64.00,0.00 L 160.00,128.00 z M 160.00,224.00L 96.00,224.00 l0.00,64.00 l 64.00,0.00 
			L 160.00,224.00 z M 288.00,32.00l-64.00,0.00 l0.00,64.00 l 64.00,0.00 L 288.00,32.00 z M 288.00,128.00l-64.00,0.00 l0.00,64.00 l 64.00,0.00 L 288.00,128.00 z M 288.00,224.00l-64.00,0.00 l0.00,64.00 l 64.00,0.00 L 288.00,224.00 z M 416.00,32.00l-64.00,0.00 l0.00,64.00 l 64.00,0.00 L 416.00,32.00 z M 416.00,128.00l-64.00,0.00 l0.00,64.00 l 64.00,0.00 
			L 416.00,128.00 z M 416.00,224.00l-64.00,0.00 l0.00,64.00 l 64.00,0.00 L 416.00,224.00 z M 416.00,352.00L 96.00,352.00 L 96.00,416.00 l 320.00,0.00 L 416.00,352.00 z"  />
<glyph unicode="&#xe030;" d="M 480.00,96.00l-32.00,0.00 L 448.00,416.00 L 128.00,416.00 L 128.00,448.00 c0.00,17.688, 14.312,32.00, 32.00,32.00l 320.00,0.00 c 17.688,0.00, 32.00-14.312, 32.00-32.00
	l0.00-320.00 C 512.00,110.312, 497.688,96.00, 480.00,96.00z M 416.00,352.00l0.00-352.00 c0.00-17.688-14.312-32.00-32.00-32.00L 32.00-32.00 c-17.688,0.00-32.00,14.312-32.00,32.00L0.00,352.00 
	c0.00,17.688, 14.312,32.00, 32.00,32.00l 352.00,0.00 C 401.688,384.00, 416.00,369.688, 416.00,352.00z M 352.00,320.00L 64.00,320.00 l0.00-96.00 l 288.00,0.00 L 352.00,320.00 z M 352.00,160.00L 64.00,160.00 l0.00-128.00 l 288.00,0.00 L 352.00,160.00 z M 128.00,256.00L 96.00,256.00 l0.00,32.00 
	l 32.00,0.00 L 128.00,256.00 z M 192.00,256.00l-32.00,0.00 l0.00,32.00 l 32.00,0.00 L 192.00,256.00 z M 320.00,256.00l-96.00,0.00 l0.00,32.00 l 96.00,0.00 L 320.00,256.00 z"  />
<glyph unicode="&#xe031;" d="M 480.00-32.00L 32.00-32.00 c-17.688,0.00-32.00,14.312-32.00,32.00L0.00,448.00 C0.00,465.688, 14.312,480.00, 32.00,480.00l 448.00,0.00 
	c 17.688,0.00, 32.00-14.312, 32.00-32.00l0.00-448.00 C 512.00-17.688, 497.688-32.00, 480.00-32.00z M 448.00,416.00L 64.00,416.00 l0.00-96.00 l 384.00,0.00 L 448.00,416.00 z M 448.00,256.00L 64.00,256.00 l0.00-224.00 l 384.00,0.00 L 448.00,256.00 z M 128.00,352.00L 96.00,352.00 L 96.00,384.00 l 32.00,0.00 
	L 128.00,352.00 z M 192.00,352.00l-32.00,0.00 L 160.00,384.00 l 32.00,0.00 L 192.00,352.00 z M 416.00,352.00L 224.00,352.00 L 224.00,384.00 l 192.00,0.00 L 416.00,352.00 z"  />
<glyph unicode="&#xe032;" d="M 448.035,223.953c0.00,106.051-85.953,192.035-192.035,192.035
		c-106.051,0.00-192.035-85.984-192.035-192.035c0.00-66.687, 34.005-125.43, 85.613-159.857l-53.482-53.463L 138.666-32.00l 69.842,69.843
		c 15.19-3.865, 31.10-5.925, 47.492-5.925c 16.394,0.00, 32.305,2.059, 47.493,5.923L 373.334-32.00l 42.57,42.633l-53.477,53.457
		C 414.039,98.517, 448.035,157.264, 448.035,223.953z M 256.00,95.93c-70.70,0.00-128.023,57.322-128.023,128.023
		c0.00,70.70, 57.323,128.023, 128.023,128.023s 128.023-57.323, 128.023-128.023C 384.023,153.252, 326.70,95.93, 256.00,95.93zM 448.035,480.00c-35.351,0.00-64.012-28.662-64.012-64.012
		c0.00-2.909, 0.213-5.768, 0.589-8.574c 21.307-14.963, 39.885-33.542, 54.849-54.849c 2.807-0.376, 5.665-0.588, 8.574-0.588
		c 35.351,0.00, 64.012,28.661, 64.012,64.012C 512.047,451.338, 483.386,480.00, 448.035,480.00zM 72.539,352.565c 14.963,21.307, 33.542,39.886, 54.849,54.849
		c 0.376,2.807, 0.588,5.665, 0.588,8.574C 127.977,451.338, 99.315,480.00, 63.965,480.00S-0.047,451.338-0.047,415.988
		c0.00-35.351, 28.661-64.012, 64.012-64.012C 66.874,351.977, 69.732,352.189, 72.539,352.565zM 288.006,255.959L 288.006,319.971L 223.994,319.971L 223.994,191.947L 320.012,191.947L 320.012,255.959 	z"  />
<glyph unicode="&#xe033;" d="M 288.00,256.00L 288.00,352.00L 224.00,352.00L 224.00,192.00L 352.00,192.00L 352.00,256.00 zM 256.00,480.00C 114.625,480.00,0.00,365.375,0.00,224.00s 114.625-256.00, 256.00-256.00s 256.00,114.625, 256.00,256.00
	S 397.375,480.00, 256.00,480.00z M 256.00,32.00c-106.031,0.00-192.00,85.969-192.00,192.00S 149.969,416.00, 256.00,416.00s 192.00-85.969, 192.00-192.00S 362.031,32.00, 256.00,32.00z"  />
<glyph unicode="&#xe034;" d="M 288.00-28.781L 288.00-32.00 l-64.00,0.00 l0.00,3.219 C 115.562-13.125, 32.00,79.25, 32.00,192.00L 32.00,320.00 
	C 32.00,408.375, 103.625,480.00, 192.00,480.00c 77.406,0.00, 145.156-54.969, 160.00-128.00l0.00,0.00l0.00-160.00 c0.00-53.031-43.00-96.00-96.00-96.00s-96.00,42.969-96.00,96.00L 160.00,320.00 
	c0.00,17.688, 14.312,32.00, 32.00,32.00s 32.00-14.312, 32.00-32.00l0.00-128.00 c0.00-17.688, 14.312-32.00, 32.00-32.00s 32.00,14.312, 32.00,32.00L 288.00,352.00 c0.00,0.00-20.656,64.00-96.00,64.00
	c-53.00,0.00-96.00-42.969-96.00-96.00l0.00-128.00 c0.00-88.375, 71.625-160.00, 160.00-160.00l0.00,0.00c 88.375,0.00, 160.00,71.625, 160.00,160.00L 416.00,448.00 c0.00,17.688, 14.312,32.00, 32.00,32.00
	s 32.00-14.312, 32.00-32.00l0.00-256.00 C 480.00,79.25, 396.438-13.125, 288.00-28.781z"  />
<glyph unicode="&#xe035;" d="M 512.00,256.00l0.00-64.00 l-66.906,0.00 c-4.781-28.344-16.047-54.375-31.828-77.031l 67.109-58.344
	l-46.188-57.062l-73.984,64.344c-21.547-14.00-45.812-24.219-72.203-28.688L 288.00-32.00 l-64.00,0.00 l0.00,66.906 c-26.469,4.469-50.766,14.781-72.328,28.906
	l-73.859-64.25l-46.188,57.062l 67.219,58.469C 83.188,137.719, 72.00,163.688, 67.219,192.00L0.00,192.00 l0.00,64.00 l 66.906,0.00 
	c 4.781,28.344, 16.047,54.375, 31.828,77.031L 31.625,391.375l 46.188,57.062l 73.984-64.344c 21.547,14.00, 45.812,24.219, 72.203,28.688L 224.00,480.00 l 64.00,0.00 
	l0.00-67.219 c 26.391-4.469, 50.656-14.688, 72.203-28.688l 73.984,64.344l 46.188-57.062l-67.109-58.344
	c 15.781-22.656, 27.047-48.688, 31.828-77.031L 512.00,256.00 z M 256.00,320.00c-53.016,0.00-96.00-42.969-96.00-96.00s 42.984-96.00, 96.00-96.00s 96.00,42.969, 96.00,96.00
	S 309.016,320.00, 256.00,320.00z"  />
<glyph unicode="&#xe036;" d="M 480.00,384.00L 352.00,384.00 L 352.00,448.00 c0.00,17.688-14.328,32.00-32.00,32.00L 192.00,480.00 c-17.672,0.00-32.00-14.312-32.00-32.00l0.00-64.00 L 32.00,384.00 
	c-17.672,0.00-32.00-14.312-32.00-32.00l0.00-352.00 c0.00-17.688, 14.328-32.00, 32.00-32.00l 448.00,0.00 c 17.672,0.00, 32.00,14.312, 32.00,32.00L 512.00,352.00 C 512.00,369.688, 497.672,384.00, 480.00,384.00z M 224.00,416.00
	l 64.00,0.00 l0.00-32.00 l-64.00,0.00 L 224.00,416.00 z M 448.00,32.00L 64.00,32.00 L 64.00,160.00 l 128.00,0.00 l0.00-32.00 l 128.00,0.00 l0.00,32.00 l 128.00,0.00 L 448.00,32.00 z M 448.00,192.00L 320.00,192.00 l0.00,32.00 L 192.00,224.00 l0.00-32.00 L 64.00,192.00 L 64.00,320.00 l 128.00,0.00 l 128.00,0.00 l 128.00,0.00 L 448.00,192.00 z"  />
<glyph unicode="&#xe037;" d="M 381.844,234.594C 383.031,241.562, 384.00,248.656, 384.00,256.00l0.00,96.00 
	C 384.00,422.688, 326.688,480.00, 256.00,480.00S 128.00,422.688, 128.00,352.00l0.00-96.00 c0.00-7.344, 0.969-14.438, 2.156-21.406C 52.719,207.094,0.00,155.625,0.00,96.00l0.00-96.00 
	c0.00-17.688, 14.312-32.00, 32.00-32.00l 448.00,0.00 c 17.688,0.00, 32.00,14.312, 32.00,32.00l0.00,96.00 C 512.00,155.625, 459.281,207.094, 381.844,234.594z M 192.00,352.00
	c0.00,35.344, 28.656,64.00, 64.00,64.00s 64.00-28.656, 64.00-64.00l0.00-96.00 c0.00-35.344-28.656-64.00-64.00-64.00s-64.00,28.656-64.00,64.00L 192.00,352.00 z M 448.00,32.00L 64.00,32.00 l0.00,64.00 
	c0.00,34.562, 36.812,64.594, 91.594,81.50C 179.031,147.562, 215.062,128.00, 256.00,128.00s 76.969,19.562, 100.406,49.50
	C 411.188,160.594, 448.00,130.562, 448.00,96.00L 448.00,32.00 z"  />
<glyph unicode="&#xe038;" d="M 288.00,174.25L 288.00,256.00 c0.00,53.031-42.969,96.00-96.00,96.00s-96.00-42.969-96.00-96.00l0.00-81.75 C 38.844,152.062,0.00,111.25,0.00,64.00c0.00-5.656,0.00-64.00,0.00-64.00
		c0.00-17.688, 14.312-32.00, 32.00-32.00l 320.00,0.00 c 17.688,0.00, 32.00,14.312, 32.00,32.00c0.00,0.00,0.00,58.344,0.00,64.00C 384.00,111.25, 345.156,152.062, 288.00,174.25z M 160.00,256.00
		c0.00,17.688, 14.312,32.00, 32.00,32.00s 32.00-14.312, 32.00-32.00l0.00-96.00 c0.00-17.688-14.312-32.00-32.00-32.00s-32.00,14.312-32.00,32.00L 160.00,256.00 z M 320.00,32.00L 64.00,32.00 l0.00,32.00 
		c0.00,19.438, 17.719,36.656, 45.094,48.406C 125.688,83.594, 156.406,64.00, 192.00,64.00s 66.312,19.594, 82.906,48.406
		C 302.281,100.656, 320.00,83.438, 320.00,64.00L 320.00,32.00 zM 416.00,302.25L 416.00,384.00 c0.00,53.031-42.969,96.00-96.00,96.00s-96.00-42.969-96.00-96.00l0.00-4.531 c 25.281-6.531, 47.312-20.531, 64.00-39.625L 288.00,384.00 
		c0.00,17.688, 14.312,32.00, 32.00,32.00s 32.00-14.312, 32.00-32.00l0.00-96.00 c0.00-17.688-14.312-32.00-32.00-32.00l0.00-64.00 c 35.594,0.00, 66.312,19.594, 82.906,48.406
		C 430.281,228.656, 448.00,211.438, 448.00,192.00l0.00-32.00 L 331.219,160.00 c 32.219-16.594, 56.969-38.50, 71.062-64.00L 480.00,96.00 c 17.688,0.00, 32.00,14.312, 32.00,32.00
		c0.00,0.00,0.00,58.344,0.00,64.00C 512.00,239.25, 473.156,280.062, 416.00,302.25z"  />
<glyph unicode="&#xe039;" d="M 512.00,288.00c0.00-141.969-256.00-320.00-256.00-320.00S0.00,146.031,0.00,288.00
	c-0.281,14.156, 1.188,30.031,0.00,48.00C-5.281,415.344, 64.469,480.00, 144.00,480.00c 45.531,0.00, 85.625-31.031, 112.00-64.00c 26.375,32.969, 66.469,64.00, 112.00,64.00
	c 79.531,0.00, 149.281-64.656, 144.00-144.00C 510.812,318.031, 512.281,302.156, 512.00,288.00z M 448.00,336.00c 3.969,44.00-35.812,80.00-80.00,80.00
	c-82.906,0.00-80.00-64.00-80.00-64.00c0.00-17.688-14.312-32.00-32.00-32.00s-32.00,14.312-32.00,32.00c0.00,0.00, 2.906,64.00-80.00,64.00c-44.188,0.00-83.969-36.00-80.00-80.00
	c 1.625-18.062-1.031-34.625, 0.438-48.00c-0.031,0.00-0.375,0.00-0.438,0.00c 2.00,0.469-11.00-94.281, 191.625-239.219
	c 0.156,0.094, 0.25,0.188, 0.375,0.281c 0.125-0.094, 0.219-0.188, 0.375-0.281C 459.00,193.719, 446.00,288.469, 448.00,288.00
	c-0.062,0.00-0.406,0.00-0.438,0.00C 449.031,301.375, 446.375,317.938, 448.00,336.00z"  />
<glyph unicode="&#xe03a;" d="M 304.00,480.00l-96.00,0.00 C 93.125,480.00,0.00,386.875,0.00,272.00c0.00-74.438, 39.406-139.25, 98.188-176.00L 96.00,96.00 l0.00-128.00 
	l 144.00,96.00l 64.00,0.00 c 114.875,0.00, 208.00,93.125, 208.00,208.00S 418.875,480.00, 304.00,480.00z M 304.00,128.00l-64.00,0.00 l-80.00-48.00l0.00,56.812 C 104.188,156.656, 64.00,209.406, 64.00,272.00
	c0.00,79.531, 64.469,144.00, 144.00,144.00l 96.00,0.00 c 79.531,0.00, 144.00-64.469, 144.00-144.00S 383.531,128.00, 304.00,128.00z"  />
<glyph unicode="&#xe03b;" d="M 128.00,256.00L 384.00,256.00L 384.00,192.00L 128.00,192.00zM 128.00,352.00L 384.00,352.00L 384.00,288.00L 128.00,288.00zM 480.00,480.00L 32.00,480.00 C 14.312,480.00,0.00,465.688,0.00,448.00l0.00-352.00 c0.00-17.688, 14.312-32.00, 32.00-32.00l 64.00,0.00 l0.00-96.00 l 144.00,96.00l 240.00,0.00 c 17.688,0.00, 32.00,14.312, 32.00,32.00L 512.00,448.00 
		C 512.00,465.688, 497.688,480.00, 480.00,480.00z M 448.00,128.00L 240.00,128.00 l-80.00-48.00l0.00,48.00 L 64.00,128.00 L 64.00,416.00 l 384.00,0.00 L 448.00,128.00 z"  />
<glyph unicode="&#xe03c;" d="M 480.00,480.00L 32.00,480.00 C 14.328,480.00,0.00,465.688,0.00,448.00l0.00-352.00 c0.00-17.688, 14.328-32.00, 32.00-32.00l 192.00,0.00 l0.00-32.00 l-96.00,0.00 
	c-17.672,0.00-32.00-14.312-32.00-32.00l0.00-32.00 l 320.00,0.00 l0.00,32.00 c0.00,17.688-14.328,32.00-32.00,32.00l-96.00,0.00 l0.00,32.00 l 192.00,0.00 c 17.672,0.00, 32.00,14.312, 32.00,32.00L 512.00,448.00 
	C 512.00,465.688, 497.672,480.00, 480.00,480.00z M 448.00,128.00L 64.00,128.00 L 64.00,416.00 l 384.00,0.00 L 448.00,128.00 z"  />
<glyph unicode="&#xe03d;" d="M 416.00,480.00L 96.00,480.00 C 78.328,480.00, 64.00,465.688, 64.00,448.00l0.00-448.00 c0.00-17.688, 14.328-32.00, 32.00-32.00l 320.00,0.00 
	c 17.672,0.00, 32.00,14.312, 32.00,32.00L 448.00,448.00 C 448.00,465.688, 433.672,480.00, 416.00,480.00z M 384.00,96.00L 128.00,96.00 L 128.00,416.00 l 256.00,0.00 L 384.00,96.00 z"  />
<glyph unicode="&#xe03e;" d="M 480.00,480.00L 32.00,480.00 C 14.328,480.00,0.00,465.688,0.00,448.00l0.00-448.00 c0.00-17.688, 14.328-32.00, 32.00-32.00l 448.00,0.00 
			c 17.672,0.00, 32.00,14.312, 32.00,32.00L 512.00,448.00 C 512.00,465.688, 497.672,480.00, 480.00,480.00z M 448.00,96.00L 64.00,96.00 L 64.00,416.00 l 384.00,0.00 L 448.00,96.00 z"  />
<glyph unicode="&#xe03f;" d="M 224.00,480.00c-17.672,0.00-32.00-14.312-32.00-32.00l0.00-160.00 l-32.00,0.00 L 160.00,448.00 c0.00,17.688-14.328,32.00-32.00,32.00S 96.00,465.688, 96.00,448.00l0.00-160.00 L 64.00,288.00 L 64.00,448.00 C 64.00,465.688, 49.672,480.00, 32.00,480.00
		S0.00,465.688,0.00,448.00l0.00-192.00 c0.00-17.688, 14.328-32.00, 32.00-32.00l 64.00,0.00 l0.00-224.00 c0.00-17.688, 14.328-32.00, 32.00-32.00s 32.00,14.312, 32.00,32.00L 160.00,224.00 l 64.00,0.00 c 17.672,0.00, 32.00,14.312, 32.00,32.00L 256.00,448.00 
		C 256.00,465.688, 241.672,480.00, 224.00,480.00zM 416.00,480.00c-53.016,0.00-96.00-42.969-96.00-96.00c0.00-41.75, 26.797-76.906, 64.00-90.125L 384.00,0.00 c0.00-17.688, 14.328-32.00, 32.00-32.00s 32.00,14.312, 32.00,32.00L 448.00,293.875 
		c 37.203,13.219, 64.00,48.375, 64.00,90.125C 512.00,437.031, 469.016,480.00, 416.00,480.00z"  />
<glyph unicode="&#xe040;" d="M 224.00,480.00c-17.672,0.00-32.00-14.312-32.00-32.00l0.00-160.00 l-32.00,0.00 L 160.00,448.00 c0.00,17.688-14.328,32.00-32.00,32.00S 96.00,465.688, 96.00,448.00l0.00-160.00 L 64.00,288.00 L 64.00,448.00 C 64.00,465.688, 49.672,480.00, 32.00,480.00
		S0.00,465.688,0.00,448.00l0.00-192.00 c0.00-17.688, 14.328-32.00, 32.00-32.00l 64.00,0.00 l0.00-224.00 c0.00-17.688, 14.328-32.00, 32.00-32.00s 32.00,14.312, 32.00,32.00L 160.00,224.00 l 64.00,0.00 c 17.672,0.00, 32.00,14.312, 32.00,32.00L 256.00,448.00 
		C 256.00,465.688, 241.672,480.00, 224.00,480.00zM 448.00,480.00c0.00,0.00-64.00-20.656-64.00-96.00l0.00-64.00 c0.00-41.75, 26.797-76.906, 64.00-90.125L 448.00,0.00 
	c0.00-17.688, 14.328-32.00, 32.00-32.00s 32.00,14.312, 32.00,32.00L 512.00,474.125 L 512.00,480.00 L 448.00,480.00 z"  />
<glyph unicode="&#xe041;" d="M 480.00,480.00L 32.00,480.00 C 14.312,480.00,0.00,465.688,0.00,448.00l0.00-448.00 c0.00-17.688, 14.312-32.00, 32.00-32.00l 448.00,0.00 
	c 17.688,0.00, 32.00,14.312, 32.00,32.00L 512.00,448.00 C 512.00,465.688, 497.688,480.00, 480.00,480.00z M 192.00,224.00c0.00,0.00, 5.062,64.00, 64.00,64.00s 64.00-64.00, 64.00-64.00s 1.844-64.00-64.00-64.00S 192.00,224.00, 192.00,224.00
	z M 448.00,32.00L 64.00,32.00 L 64.00,256.00 l 64.00,0.00 l 4.531,0.00 c-2.656-10.281-4.531-20.875-4.531-32.00c0.00-70.688, 57.312-128.00, 128.00-128.00s 128.00,57.312, 128.00,128.00
	c0.00,11.125-1.875,21.719-4.531,32.00L 384.00,256.00 l 64.00,0.00 L 448.00,32.00 z M 448.00,320.00l-96.00,0.00 L 352.00,416.00 l 96.00,0.00 L 448.00,320.00 z"  />
<glyph unicode="&#xe042;" d="M 480.00-32.00L 32.00-32.00 c-17.688,0.00-32.00,14.312-32.00,32.00L0.00,448.00 C0.00,465.688, 14.312,480.00, 32.00,480.00l 448.00,0.00 
	c 17.688,0.00, 32.00-14.312, 32.00-32.00l0.00-448.00 C 512.00-17.688, 497.688-32.00, 480.00-32.00z M 448.00,416.00L 64.00,416.00 l0.00-384.00 l 384.00,0.00 L 448.00,416.00 z M 256.00,288.00c0.00,35.281, 29.188,64.00, 59.438,64.00L 352.00,352.00 
	l0.00-64.00 l-32.00,0.00 l0.00-32.00 l 32.00,0.00 l0.00-64.00 l-32.00,0.00 l0.00-96.00 l-64.00,0.00 l0.00,96.00 l-32.00,0.00 l0.00,64.00 l 32.00,0.00 L 256.00,288.00 z"  />
<glyph unicode="&#xe043;" d="M 480.00,480.00L 32.00,480.00 C 14.312,480.00,0.00,465.688,0.00,448.00l0.00-448.00 c0.00-17.688, 14.312-32.00, 32.00-32.00l 448.00,0.00 
			c 17.688,0.00, 32.00,14.312, 32.00,32.00L 512.00,448.00 C 512.00,465.688, 497.688,480.00, 480.00,480.00z M 448.00,32.00L 256.00,32.00 L 256.00,224.00 L 64.00,224.00 L 64.00,416.00 l 192.00,0.00 l0.00-192.00 l 192.00,0.00 L 448.00,32.00 z"  />
<glyph unicode="&#xe044;" d="M 64.00,192.00L0.00,192.00 l0.00-192.00 c0.00-17.688, 14.312-32.00, 32.00-32.00l 192.00,0.00 l0.00,64.00 L 64.00,32.00 L 64.00,192.00 zM 64.00,416.00l 160.00,0.00 L 224.00,480.00 L 32.00,480.00 C 14.312,480.00,0.00,465.688,0.00,448.00l0.00-192.00 l 64.00,0.00 L 64.00,416.00 zM 448.00,32.00L 288.00,32.00 l0.00-64.00 l 192.00,0.00 c 17.688,0.00, 32.00,14.312, 32.00,32.00L 512.00,192.00 l-64.00,0.00 L 448.00,32.00 zM 480.00,480.00L 288.00,480.00 l0.00-64.00 l 160.00,0.00 l0.00-160.00 l 64.00,0.00 L 512.00,448.00 C 512.00,465.688, 497.688,480.00, 480.00,480.00zM 288.00,256.00L 288.00,352.00L 224.00,352.00L 224.00,256.00L 128.00,256.00L 128.00,192.00L 224.00,192.00L 224.00,96.00L 288.00,96.00L 288.00,192.00L 384.00,192.00L 384.00,256.00 	z"  />
<glyph unicode="&#xe045;" d="M 256.00,480.00C 114.615,480.00,0.00,365.385,0.00,224.00s 114.615-256.00, 256.00-256.00s 256.00,114.615, 256.00,256.00
	S 397.385,480.00, 256.00,480.00z M 256.00,428.812c 47.562,0.00, 90.812-16.906, 125.562-44.125c-16.156-13.938-50.875-40.375-103.938-65.438
	c-19.562,34.531-42.594,69.531-70.125,103.156C 223.125,426.219, 239.219,428.812, 256.00,428.812z M 168.938,408.719
	c 15.50-21.062, 41.00-58.375, 67.906-106.00c-57.469-18.844-123.875-19.469-175.25-15.344C 79.25,341.00, 118.375,384.812, 168.938,408.719z
	 M 253.25,272.719c 7.188-13.75, 14.281-28.562, 21.281-43.594c-107.312-23.531-157.562-93.969-177.656-132.594
	c-28.156,35.062-45.688,79.00-45.688,127.469c0.00,9.062, 0.812,17.906, 1.969,26.625C 93.531,245.031, 165.00,242.844, 253.25,272.719z
	 M 292.281,187.812c 19.156-46.812, 35.969-97.531, 45.781-151.25c-25.156-11.031-52.844-17.375-82.062-17.375
	c-48.594,0.00-92.625,17.656-127.75,45.906C 179.094,135.781, 238.031,171.438, 292.281,187.812z M 374.719,57.656
	c-2.594,14.656-13.781,69.438-40.281,139.562c 62.031,9.188, 111.25-2.938, 123.312-6.438
	C 448.719,136.031, 418.062,88.656, 374.719,57.656z M 318.969,235.469c-7.438,17.281-15.438,34.938-24.781,53.125
	c 37.062,16.031, 76.438,37.938, 117.219,67.375c 30.375-35.719, 49.406-81.406, 49.406-131.969
	C 406.188,236.125, 359.438,238.781, 318.969,235.469z"  />
<glyph unicode="&#xe046;" d="M 256.00,480.00C 149.969,480.00, 64.00,394.031, 64.00,288.00s 192.00-320.00, 192.00-320.00s 192.00,213.969, 192.00,320.00
			S 362.031,480.00, 256.00,480.00z M 256.00,160.00c-70.688,0.00-128.00,57.312-128.00,128.00S 185.312,416.00, 256.00,416.00s 128.00-57.312, 128.00-128.00S 326.688,160.00, 256.00,160.00z"  />
<glyph unicode="&#xe047;" d="M 256.00,480.00C 149.969,480.00, 64.00,394.031, 64.00,288.00s 192.00-320.00, 192.00-320.00s 192.00,213.969, 192.00,320.00
			S 362.031,480.00, 256.00,480.00z M 256.00,160.00c-70.688,0.00-128.00,57.312-128.00,128.00S 185.312,416.00, 256.00,416.00s 128.00-57.312, 128.00-128.00S 326.688,160.00, 256.00,160.00z M 256.00,352.00
			c-35.344,0.00-64.00-28.656-64.00-64.00s 28.656-64.00, 64.00-64.00s 64.00,28.656, 64.00,64.00S 291.344,352.00, 256.00,352.00z"  />
<glyph unicode="&#xe048;" d="M 480.00,384.00L 352.00,384.00 L 352.00,448.00 c0.00,17.656-14.328,32.00-32.00,32.00L 192.00,480.00 c-17.672,0.00-32.00-14.344-32.00-32.00l0.00-64.00 L 96.00,384.00 L 96.00,416.00 L 32.00,416.00 l0.00-32.00 c-17.672,0.00-32.00-14.344-32.00-32.00l0.00-352.00 
		c0.00-17.688, 14.328-32.00, 32.00-32.00l 448.00,0.00 c 17.672,0.00, 32.00,14.312, 32.00,32.00L 512.00,352.00 C 512.00,369.656, 497.672,384.00, 480.00,384.00z M 224.00,416.00l 64.00,0.00 l0.00-32.00 l-64.00,0.00 L 224.00,416.00 z M 448.00,32.00L 64.00,32.00 
		L 64.00,320.00 l 384.00,0.00 L 448.00,32.00 zM 256.00,96.00c 53.016,0.00, 96.00,42.969, 96.00,96.00s-42.984,96.00-96.00,96.00s-96.00-42.969-96.00-96.00S 202.984,96.00, 256.00,96.00z M 256.00,224.00
		c 17.672,0.00, 32.00-14.312, 32.00-32.00s-14.328-32.00-32.00-32.00s-32.00,14.312-32.00,32.00S 238.328,224.00, 256.00,224.00z"  />
<glyph unicode="&#xe049;" d="M 32.00,256.00c-17.672,0.00-32.00-14.312-32.00-32.00s 14.328-32.00, 32.00-32.00s 32.00,14.312, 32.00,32.00
			S 49.672,256.00, 32.00,256.00z M 96.00,352.00c 17.672,0.00, 32.00,14.312, 32.00,32.00s-14.328,32.00-32.00,32.00S 64.00,401.688, 64.00,384.00S 78.328,352.00, 96.00,352.00z M 256.00,416.00
			c 17.672,0.00, 32.00,14.312, 32.00,32.00c0.00,17.656-14.328,32.00-32.00,32.00s-32.00-14.344-32.00-32.00C 224.00,430.312, 238.328,416.00, 256.00,416.00z M 96.00,96.00
			c-17.672,0.00-32.00-14.312-32.00-32.00s 14.328-32.00, 32.00-32.00s 32.00,14.312, 32.00,32.00S 113.672,96.00, 96.00,96.00z M 416.00,96.00c-17.672,0.00-32.00-14.312-32.00-32.00
			s 14.328-32.00, 32.00-32.00s 32.00,14.312, 32.00,32.00S 433.672,96.00, 416.00,96.00z M 256.00,352.00c-70.688,0.00-128.00-57.312-128.00-128.00s 57.312-128.00, 128.00-128.00
			s 128.00,57.312, 128.00,128.00S 326.688,352.00, 256.00,352.00z M 256.00,160.00c-35.344,0.00-64.00,28.656-64.00,64.00s 28.656,64.00, 64.00,64.00s 64.00-28.656, 64.00-64.00
			S 291.344,160.00, 256.00,160.00z M 480.00,256.00c-17.672,0.00-32.00-14.312-32.00-32.00s 14.328-32.00, 32.00-32.00s 32.00,14.312, 32.00,32.00S 497.672,256.00, 480.00,256.00z M 256.00,32.00
			c-17.672,0.00-32.00-14.344-32.00-32.00c0.00-17.688, 14.328-32.00, 32.00-32.00s 32.00,14.312, 32.00,32.00C 288.00,17.656, 273.672,32.00, 256.00,32.00z M 416.00,352.00
			c 17.672,0.00, 32.00,14.312, 32.00,32.00s-14.328,32.00-32.00,32.00s-32.00-14.312-32.00-32.00S 398.328,352.00, 416.00,352.00z"  />
<glyph unicode="&#xe04a;" d="M 256.00,352.00c-70.688,0.00-128.00-57.312-128.00-128.00s 57.312-128.00, 128.00-128.00s 128.00,57.312, 128.00,128.00
		S 326.688,352.00, 256.00,352.00z M 256.00,160.00c-35.344,0.00-64.00,28.656-64.00,64.00s 28.656,64.00, 64.00,64.00L 256.00,160.00 zM 256.00,416.00c 17.672,0.00, 32.00,14.312, 32.00,32.00c0.00,17.656-14.328,32.00-32.00,32.00s-32.00-14.344-32.00-32.00
		C 224.00,430.312, 238.328,416.00, 256.00,416.00zM 96.00,352.00c 17.672,0.00, 32.00,14.312, 32.00,32.00s-14.328,32.00-32.00,32.00S 64.00,401.688, 64.00,384.00
		S 78.328,352.00, 96.00,352.00zM 32.00,256.00c-17.672,0.00-32.00-14.312-32.00-32.00s 14.328-32.00, 32.00-32.00s 32.00,14.312, 32.00,32.00
		S 49.672,256.00, 32.00,256.00zM 96.00,96.00c-17.672,0.00-32.00-14.312-32.00-32.00s 14.328-32.00, 32.00-32.00s 32.00,14.312, 32.00,32.00
		S 113.672,96.00, 96.00,96.00zM 256.00,32.00c-17.672,0.00-32.00-14.344-32.00-32.00c0.00-17.688, 14.328-32.00, 32.00-32.00s 32.00,14.312, 32.00,32.00
		C 288.00,17.656, 273.672,32.00, 256.00,32.00zM 416.00,96.00c-17.672,0.00-32.00-14.312-32.00-32.00s 14.328-32.00, 32.00-32.00s 32.00,14.312, 32.00,32.00
		S 433.672,96.00, 416.00,96.00zM 480.00,256.00c-17.672,0.00-32.00-14.312-32.00-32.00s 14.328-32.00, 32.00-32.00s 32.00,14.312, 32.00,32.00
		S 497.672,256.00, 480.00,256.00zM 416.00,352.00c 17.672,0.00, 32.00,14.312, 32.00,32.00s-14.328,32.00-32.00,32.00s-32.00-14.312-32.00-32.00
		S 398.328,352.00, 416.00,352.00z"  />
<glyph unicode="&#xe04b;" d="M 255.843,367.964c 0.062-79.524, 64.464-143.988, 143.987-143.988
	c 42.684,0.00, 80.649,18.936, 108.615,62.745c 4.719-0.844, 3.688-43.309, 3.375-62.745c-2.281-141.363-114.615-255.978-255.978-255.978
	c-141.363,0.00-255.979,114.615-255.979,255.978S 114.479,478.079, 255.843,479.954c 16.874,0.219, 34.653-0.312, 63.433-1.719
	C 301.37,459.956, 255.812,415.616, 255.843,367.964z M 191.848,319.968c0.00,34.591, 11.218,66.401, 29.873,92.555
	c-89.68-16.155-157.861-94.21-157.861-188.546c0.00-106.021, 85.961-191.984, 191.983-191.984c 94.335,0.00, 172.392,68.182, 188.546,157.861
	c-26.154-18.654-57.963-29.871-92.555-29.871C 263.467,159.982, 191.848,231.601, 191.848,319.968z"  />
<glyph unicode="&#xe04c;" d="M 400.00,352.00c-5.594,0.00-10.844-1.125-16.312-1.656C 346.875,408.844, 282.219,448.00, 208.00,448.00
	C 93.125,448.00,0.00,354.875,0.00,240.00l0.00-32.00 c0.00-109.406, 84.75-199.719, 192.00-208.00l 224.00,0.00 c 89.594,8.188, 160.00,84.281, 160.00,176.00
	C 576.00,273.188, 497.188,352.00, 400.00,352.00z M 416.00,64.00L 192.00,64.00 c-17.906,2.00-34.656,8.75-49.969,16.688c-0.312,0.156-0.594,0.344-0.906,0.50
	c-7.156,3.781-13.938,8.031-20.312,12.938c-0.938,0.688-1.781,1.469-2.688,2.188c-5.625,4.531-11.00,9.312-15.906,14.656
	c-1.562,1.656-2.875,3.531-4.344,5.281C 93.906,121.00, 90.00,125.812, 86.656,131.062c-1.969,3.062-3.469,6.375-5.188,9.562
	c-2.406,4.50-4.938,8.844-6.844,13.594c-2.00,4.844-3.25,10.00-4.688,15.094c-1.031,3.594-2.375,7.00-3.125,10.719
	C 65.031,189.062, 64.00,198.406, 64.00,208.00l0.00,32.00 c0.00,79.531, 64.469,144.00, 144.00,144.00c 10.75,0.00, 21.156-1.375, 31.25-3.625
	c 2.062-0.469, 4.00-1.312, 6.031-1.875c 8.188-2.188, 16.125-4.938, 23.656-8.469c 1.281-0.625, 2.469-1.375, 3.75-2.031
	c 8.281-4.188, 16.031-9.125, 23.312-14.781c 0.344-0.281, 0.688-0.562, 1.062-0.844c 24.531-19.50, 42.562-46.531, 50.312-77.938
	C 363.062,282.938, 380.875,288.00, 400.00,288.00c 61.844,0.00, 112.00-50.156, 112.00-112.00C 512.00,119.625, 470.219,71.812, 416.00,64.00z" horiz-adv-x="576"  />
<glyph unicode="&#xe04d;" d="M 256.00-32.00C 114.625-32.00,0.00,82.625,0.00,224.00S 114.625,480.00, 256.00,480.00s 256.00-114.625, 256.00-256.00
	S 397.375-32.00, 256.00-32.00z M 256.00,416.00C 149.969,416.00, 64.00,330.031, 64.00,224.00s 85.969-192.00, 192.00-192.00s 192.00,85.969, 192.00,192.00S 362.031,416.00, 256.00,416.00z M 256.00,96.00
	c-70.688,0.00-128.00,57.312-128.00,128.00s 57.312,128.00, 128.00,128.00s 128.00-57.312, 128.00-128.00S 326.688,96.00, 256.00,96.00z"  />
<glyph unicode="&#xe04e;" d="M 256.00-32.00C 114.625-32.00,0.00,82.625,0.00,224.00S 114.625,480.00, 256.00,480.00s 256.00-114.625, 256.00-256.00
	S 397.375-32.00, 256.00-32.00z M 256.00,416.00C 149.969,416.00, 64.00,330.031, 64.00,224.00s 85.969-192.00, 192.00-192.00s 192.00,85.969, 192.00,192.00S 362.031,416.00, 256.00,416.00z M 128.00,224.00
	c0.00,70.688, 57.312,128.00, 128.00,128.00l0.00-256.00 C 185.312,96.00, 128.00,153.312, 128.00,224.00z"  />
<glyph unicode="&#xe04f;" d="M 256.00-32.00C 114.625-32.00,0.00,82.625,0.00,224.00S 114.625,480.00, 256.00,480.00s 256.00-114.625, 256.00-256.00
	S 397.375-32.00, 256.00-32.00z M 256.00,416.00C 149.969,416.00, 64.00,330.031, 64.00,224.00s 85.969-192.00, 192.00-192.00s 192.00,85.969, 192.00,192.00S 362.031,416.00, 256.00,416.00z
	 M 350.094,108.594l-5.625-3.281l-16.25-9.906l-9.594-6.969c-7.125-3.406-14.562-6.094-22.25-8.375L 296.375,89.50 l-2.719,21.719
	c0.00,0.00-1.344,12.531-3.375,15.812c-2.031,3.312-6.781,7.938-11.531,9.906s-8.125,1.969-10.844,5.25c-2.719,3.312-4.75,9.25-8.125,14.50
	c-3.406,5.281-7.469,10.562-7.469,13.188s0.00,29.656,0.00,29.656l 3.406,25.031l 7.438,5.281l 8.812,9.875l 6.094,1.969l 21.00-3.938l 14.906,0.00 
	l 6.125-12.531l 14.219-11.188l 8.812-13.844l 11.50-3.938L 367.50,196.248 l 8.812-10.562l 5.438-11.188l 2.031-7.906l0.00-13.188 l-1.406-7.781
	C 373.781,131.531, 362.875,119.125, 350.094,108.594z M 297.719,335.938l-14.906-7.906l-5.406-15.156l-8.812-7.906l-29.156,0.00 
	l-13.531-5.281l-0.688-10.531l-5.406-8.562l-1.375-9.25l 2.719-7.906l 3.375-7.906c0.00,0.00, 8.156-9.219,0.00-15.812
	c0.00,0.00-10.156,0.00-12.188,3.312c-2.031,3.281-16.938,12.50-19.656,15.156c-2.688,2.625-11.50,5.25-11.50,5.25l-10.844,3.969l-10.156,0.656
	l 0.656,13.844l-0.656,11.844l-4.094,8.562l-11.50,8.594l-0.688,9.219l 1.406,5.125c 27.438,26.531, 65.25,42.969, 107.00,42.969
	c 23.562,0.00, 45.594-5.656, 65.50-14.969l-0.438-3.469L 297.719,335.938z"  />
<glyph unicode="&#x20;" horiz-adv-x="256" />
<glyph class="hidden" unicode="&#xf000;" d="M0,480L 512 -32L0 -32 z" horiz-adv-x="0" />
</font>
</defs>
</svg>
